[Login] or [Signup]
Login
Username:
Password:
[Signup]
[Recover Account]


Poll


You must be logged in to view polls



Torrent Details For "Thugs Of Hindostan 2018 Hindi 1080p BluRay DD 5.1 x264 ESub [MW]"

Thugs Of Hindostan 2018 Hindi 1080p BluRay DD 5.1 x264 ESub [MW]

Download this torrent | Magnet Download
Health:
Seeds: 40
Leechers: 69
Completed: 34 
Last Checked: 10-02-2019 11:24:24
External Torrent
Update Stats
Download Magnet


Poster
No poster


Watch-Free-HD     Download

Details
Name:Thugs Of Hindostan 2018 Hindi 1080p BluRay DD 5.1 x264 ESub [MW]
Description:

 



General
Format : Matroska
Format version : Version 4
File size : 2.97 GiB
Duration : 2 h 44 min
Overall bit rate : 2 586 kb/s

Video
ID : 1
Format : AVC
Format/Info : Advanced Video Codec
Format profile : [email protected]
Format settings : CABAC / 4 Ref Frames
Format settings, CABAC : Yes
Format settings, RefFrames : 4 frames
Codec ID : V_MPEG4/ISO/AVC
Duration : 2 h 44 min
Bit rate : 2 150 kb/s
Width : 1 920 pixels
Height : 804 pixels
Display aspect ratio : 2.40:1
Frame rate mode : Constant
Frame rate : 24.000 FPS
Color space : YUV
Chroma subsampling : 4:2:0
Bit depth : 8 bits
Scan type : Progressive
Bits/(Pixel*Frame) : 0.058
Stream size : 2.46 GiB (83%)
Writing library : x264 core 157 r2935 545de2f

Audio
ID : 2
Format : AC-3
Format/Info : Audio Coding 3
Commercial name : Dolby Digital
Codec ID : A_AC3
Duration : 2 h 44 min
Bit rate mode : Constant
Bit rate : 448 kb/s
Channel(s) : 6 channels
Channel layout : L R C LFE Ls Rs
Sampling rate : 48.0 kHz
Frame rate : 31.250 FPS (1536 SPF)
Bit depth : 16 bits
Compression mode : Lossy
Stream size : 527 MiB (17%)
Language : Hindi
Service kind : Complete Main
Default : Yes
Forced : No

Text
ID : 3
Format : UTF-8
Codec ID : S_TEXT/UTF8
Codec ID/Info : UTF-8 Plain Text
Duration : 2 h 37 min
Bit rate : 34 b/s
Count of elements : 1277
Stream size : 39.1 KiB (0%)
Default : Yes
Forced : No


Click To View Image

 http://pichub.site/image/k0p4Q
 http://pichub.site/image/k0r6k
 http://pichub.site/image/k02Cv
 http://pichub.site/image/k05rd
 http://pichub.site/image/k0lQ9
 http://pichub.site/image/k0XNR

Category:Movies > Bollywood
Lang:Hindi
Total Size:2.97 GB
Info Hash:71b6d43509592f4d310e6f0d650ebdce738dbb05
Added By:Freaky
Date Added:10-02-2019 08:03:58
Views:297
Hits:49

Download Torrent

Ratings:Not Yet Rated (Log in to rate it)


Tracker:
udp://tracker.coppersurfer.tk:6969/announce


File List: 


Comments

No comments still posted

Powered by 10 Hamsters v2-svn -|- Page Generated In 0.116838 secs.
-|- RSS FEED
Theme By: Nikkbu
Torpedo Ink Series by Christine Feehan | Operator's Manual | Tập 52 - Bỗng Thèm Của Chua