[Login] or [Signup]
Login
Username:
Password:
[Signup]
[Recover Account]


Poll


You must be logged in to view polls



Torrent Details For "Polar 2019 720p NF WEB-DL x264 [MW]"

Polar 2019 720p NF WEB-DL x264 [MW]

Download this torrent | Magnet Download
Health:
Seeds: 64
Leechers: 77
Completed: 149 
Last Checked: 11-02-2019 12:04:27
External Torrent
Update Stats
Download Magnet


Poster
No poster


Watch-Free-HD     Download

Details
Name:Polar 2019 720p NF WEB-DL x264 [MW]
Description:

 


General
Format                                   : Matroska
Format version                           : Version 4
File size                                : 1.02 GiB
Duration                                 : 1 h 58 min
Overall bit rate                         : 1 232 kb/s

Video
ID                                       : 1
Format                                   : AVC
Format/Info                              : Advanced Video Codec
Format profile                           : [email protected]
Format settings                          : CABAC / 4 Ref Frames
Format settings, CABAC                   : Yes
Format settings, RefFrames               : 4 frames
Codec ID                                 : V_MPEG4/ISO/AVC
Duration                                 : 1 h 58 min
Bit rate                                 : 1 150 kb/s
Width                                    : 1 280 pixels
Height                                   : 640 pixels
Display aspect ratio                     : 2.000
Frame rate mode                          : Constant
Frame rate                               : 23.976 (24000/1001) FPS
Color space                              : YUV
Chroma subsampling                       : 4:2:0
Bit depth                                : 8 bits
Scan type                                : Progressive
Bits/(Pixel*Frame)                       : 0.059
Stream size                              : 937 MiB (89%)
Writing library                          : x264 core 157 r2935 545de2f

Audio
ID                                       : 2
Format                                   : AAC LC
Codec ID                                 : A_AAC-2
Duration                                 : 1 h 58 min
Bit rate                                 : 128 kb/s
Channel(s)                               : 2 channels
Channel layout                           : L R
Sampling rate                            : 48.0 kHz
Frame rate                               : 46.875 FPS (1024 SPF)
Compression mode                         : Lossy
Stream size                              : 109 MiB (10%)
Language                                 : English
Default                                  : Yes
Forced                                   : No


Click To View Image

 http://pichub.site/image/kLpKT
 http://pichub.site/image/kLoSV
 http://pichub.site/image/kLlMD
 http://pichub.site/image/kL2XN
 http://pichub.site/image/kL6iZ
 http://pichub.site/image/kLPpg

Category:Movies > HDRips
Lang:English  English
Total Size:1.02 GB
Info Hash:393d23f1279b852bc77ba01e12be6ba889c28346
Added By:Freaky
Date Added:11-02-2019 08:53:20
Views:49
Hits:5

Download Torrent

Ratings:Not Yet Rated (Log in to rate it)


Tracker:
udp://tracker.coppersurfer.tk:6969/announce


File List: 


Comments

No comments still posted

Powered by 10 Hamsters v2-svn -|- Page Generated In 0.127537 secs.
-|- RSS FEED
Theme By: Nikkbu
Lissy (0) | Global Governance and the Evolution of a New Role of International | Abbie Eaton