[Login] or [Signup]
Login
Username:
Password:
[Signup]
[Recover Account]


Poll


You must be logged in to view polls



Torrent Details For "Split.Lip.2019.HDRip.AC3.X264.LLG"

Split.Lip.2019.HDRip.AC3.X264.LLG

Download this torrent | Magnet Download
Health:
Seeds: 0
Leechers: 0
Completed:
Last Checked: 11-02-2019 15:08:45
External Torrent
Update Stats
Download Magnet


Poster
No poster


iMDB
Title: Split Lip
Year: 2019
Runtime: 100 minutes
Votes: 75
Rating: 4.9/10
Language: English
Tagline: Hit Like A Girl
Director: Christopher Sheffield
Writing By: Christopher Sheffield,
Produced By: Mike Dolphy,C.B. Martin,Christopher Sheffield,
Music: Jesse Conner
Cast:
Jax Menez Atwell as Alexander Marks
DeJean Brown as Karlton
Maryam Cné as Dana
Mackenzie Coffman as Jessica
Matthew Coleman as Colt FortyFive
Drue Schaefer Crookston as 'Handsome'
Mike Dolphy as Richard Voyce
Eli Godfrey as Ghetty
David Alan Graf as Albert 'Lucky' Nelson
Cristobal Hernandez as Stein
Trailers:
Split Lip - Trailer


Watch-Free-HD     Download

Details
Name:Split.Lip.2019.HDRip.AC3.X264.LLG
Description:

Quote:



******************************Thumbnail:**********************

 

******************************Screenshots:********************

 Screenshot 1

 Screenshot 2

 Screenshot 3

 Screenshot 4

 Screenshot 5

 Screenshot 6

 Screenshot 7

 Screenshot 8

 Screenshot 9

 Screenshot 0


******************************************************

Split.Lip.2019.HDRip.AC3.X264.LLG.mp4
Format                                   : MPEG-4
Format profile                           : Base Media
Codec ID                                 : isom (isom/iso2/avc1/mp41)
File size                                : 1.09 GiB
Duration                                 : 1 h 40 min
Overall bit rate mode                    : Variable
Overall bit rate                         : 1 549 kb/s


Video
ID                                       : 1
Format                                   : AVC
Format/Info                              : Advanced Video Codec
Format profile                           : [email protected]
Format settings                          : CABAC / 1 Ref Frames
Format settings, CABAC                   : Yes
Format settings, RefFrames               : 1 frame
Codec ID                                 : avc1
Codec ID/Info                            : Advanced Video Coding
Duration                                 : 1 h 40 min
Bit rate mode                            : Variable
Bit rate                                 : 1 162 kb/s
Maximum bit rate                         : 3 600 kb/s
Width                                    : 720 pixels
Height                                   : 328 pixels
Display aspect ratio                     : 2.2:1
Frame rate mode                          : Constant
Frame rate                               : 23.976 (23976/1000) FPS
Color space                              : YUV
Chroma subsampling                       : 4:2:0
Bit depth                                : 8 bits
Scan type                                : Progressive
Bits/(Pixel*Frame)                       : 0.205
Stream size                              : 836 MiB (75%)


Audio
ID                                       : 2
Format                                   : AC-3
Format/Info                              : Audio Coding 3
Commercial name                          : Dolby Digital
Codec ID                                 : ac-3
Duration                                 : 1 h 40 min
Bit rate mode                            : Constant
Bit rate                                 : 384 kb/s
Channel(s)                               : 6 channels
Channel layout                           : L R C LFE Ls Rs
Sampling rate                            : 48.0 kHz
Frame rate                               : 31.250 FPS (1536 SPF)
Bit depth                                : 16 bits
Compression mode                         : Lossy
Stream size                              : 276 MiB (25%)
Language                                 : English
Service kind                             : Complete Main
Default                                  : Yes
Alternate group                          : 1



********************************************************


Category:Movies > HDRips
Lang:English  English
Total Size:1.12 GB
Info Hash:f0f7906353ae246a7f31705afccc720385926554
Added By:LifeLongg
Date Added:11-02-2019 15:08:45
Views:49
Hits:4

Download Torrent

Ratings:Not Yet Rated (Log in to rate it)


Tracker:
udp://tracker.openbittorrent.com:80/announce


File List: 


Comments

No comments still posted

Powered by 10 Hamsters v2-svn -|- Page Generated In 0.540472 secs.
-|- RSS FEED
Theme By: Nikkbu
Read more | Song Of Back And Neck | Watch movie