[Login] or [Signup]
Login
Username:
Password:
[Signup]
[Recover Account]


Poll


You must be logged in to view polls



Torrent Details For "Alita.Battle.Angel.2019.720p.HDCAM.LLG"

Alita.Battle.Angel.2019.720p.HDCAM.LLG

Download this torrent | Magnet Download
Health:
Seeds: 0
Leechers: 0
Completed:
Last Checked: 12-02-2019 06:36:36
External Torrent
Update Stats
Download Magnet


Poster
No poster


iMDB
Title: Alita: Battle Angel
Year: 2019
Runtime: 122 minutes
Votes: 3194
Rating: 7.6/10
Language: English, Spanish
Tagline: Her Legend Begins.
Director: Robert Rodriguez
Writing By: James Cameron,Laeta Kalogridis,Robert Rodriguez,Yukito Kishiro,
Produced By: James Cameron,Jon Landau,David Valdes,David Womack,
Music: Junkie XL
Cast:
Rosa Salazar as Alita
Christoph Waltz as Dr. Dyson Ido
Jennifer Connelly as Chiren
Mahershala Ali as Vector
Ed Skrein as Zapan
Jackie Earle Haley as Grewishka
Keean Johnson as Hugo
Jorge Lendeborg Jr. as Tanji
Lana Condor as Koyomi
Idara Victor as Nurse Gerhad
Trailers:
Super Bowl Teaser
Asia Trailer
Official Trailer #3
Official Trailer #2
Official Trailer #1


Watch-Free-HD     Download

Details
Name:Alita.Battle.Angel.2019.720p.HDCAM.LLG
Description:

Quote:



******************************Thumbnail:**********************

 

******************************Screenshots:********************

 Screenshot 1

 Screenshot 2

 Screenshot 3

 Screenshot 4

 Screenshot 5

 Screenshot 6

 Screenshot 7

 Screenshot 8

 Screenshot 9

 Screenshot 0


******************************************************

Alita.Battle.Angel.2019.720p.HDCAM.LLG.mp4
Format                                   : MPEG-4
Format profile                           : Base Media
Codec ID                                 : isom (isom/iso2/avc1/mp41)
File size                                : 1.36 GiB
Duration                                 : 1 h 59 min
Overall bit rate mode                    : Variable
Overall bit rate                         : 1 633 kb/s


Video
ID                                       : 1
Format                                   : AVC
Format/Info                              : Advanced Video Codec
Format profile                           : [email protected]
Format settings                          : CABAC / 1 Ref Frames
Format settings, CABAC                   : Yes
Format settings, RefFrames               : 1 frame
Codec ID                                 : avc1
Codec ID/Info                            : Advanced Video Coding
Duration                                 : 1 h 59 min
Bit rate mode                            : Variable
Bit rate                                 : 1 497 kb/s
Maximum bit rate                         : 4 500 kb/s
Width                                    : 1 280 pixels
Height                                   : 536 pixels
Display aspect ratio                     : 2.40:1
Frame rate mode                          : Constant
Frame rate                               : 29.970 (29970/1000) FPS
Original frame rate                      : 29.970 (30000/1001) FPS
Color space                              : YUV
Chroma subsampling                       : 4:2:0
Bit depth                                : 8 bits
Scan type                                : Progressive
Bits/(Pixel*Frame)                       : 0.073
Stream size                              : 1.25 GiB (92%)

Audio
ID                                       : 2
Format                                   : AAC LC
Format/Info                              : Advanced Audio Codec Low Complexity
Codec ID                                 : mp4a-40-2
Duration                                 : 1 h 59 min
Bit rate mode                            : Constant
Bit rate                                 : 129 kb/s
Channel(s)                               : 2 channels
Channel layout                           : L R
Sampling rate                            : 48.0 kHz
Frame rate                               : 46.875 FPS (1024 SPF)
Compression mode                         : Lossy
Stream size                              : 110 MiB (8%)
Default                                  : Yes




********************************************************


Category:Movies > Pre-Releases
Lang:English  English
Total Size:1.37 GB
Info Hash:28e794393a98e4b4ef5fbe47a4aad2244eacca93
Added By:LifeLongg
Date Added:12-02-2019 06:36:36
Views:87
Hits:6

Download Torrent

Ratings:Not Yet Rated (Log in to rate it)


Tracker:
udp://tracker.openbittorrent.com:80/announce


File List: 


Comments

No comments still posted

Powered by 10 Hamsters v2-svn -|- Page Generated In 0.207243 secs.
-|- RSS FEED
Theme By: Nikkbu
Inazuma Eleven Sub Indo Batch Eps 1-123 Lengkap | Drum n Bass | Santa Claus And Cia